发行公司:EMI
唱片编号:0724359600208
唱片版本:香港首版
发行年份:2003年

曲目:
VISUAL
01. 电脑档案 不能播放
02. 戀之風景(MUSIC VIDEO)
03.六樓後座 (MUSIC VIDEO)
AUDIO
04. 美好的原點
05. 我不怕
06. 女明星
07. 最後我們...
08. Confession
09. 想念動作
10. Soul Mate
11. 六樓後座之幸福
12. My Wishes
13. 消失行蹤
14. 戀之風景
15. Ocean
16. 六樓後座 (粵語版)
17. 戀之風景 (粵語版)

[WAV][林嘉欣 – 午夜11:30的星光(香港AVCD特別版)]-萌草酱
[WAV][林嘉欣 – 午夜11:30的星光(香港AVCD特別版)]-萌草酱
[WAV][林嘉欣 – 午夜11:30的星光(香港AVCD特別版)]-萌草酱
Exact Audio Copy V0.99 prebeta 5 from 4. May 2009

EAC 抓取日志文件从31. 七月 2011, 14:33

林嘉欣 / 午夜11:30的星光(香港AVCD特別版)

使用驱动器  :ATAPI   DVD D  DH16D2P   Adapter: 3  ID: 1

读取模式     : 保护
使用精确流   : 是
废除音频缓冲 : 是
使用 C2 指针 : 否

读取偏移校正                   : 6
读取 Lead-In 和 Lead-Out       : 否
用静音填充抓取中丢失偏移的采样 : 是
去除首尾静音块                 : 否
在 CRC 计算中使用了空样本      : 是
已用接口                       : Win NT 及 2000 本地 Win32 接口
间隙处理                       : 未检出,故附加至前一音轨

所用输出格式 : 内部 WAV 函数
样本格式     : 44.100 Hz;16 Bit;立体声

被抓轨 CD 的 TOC

音轨 |   开始   |   长度   | 起始扇区 | 结尾扇区
--------------------------------------------------
1  |  0:00.00 |  0:06.62 |       0  |     511
2  |  0:06.62 |  4:15.33 |     512  |   19669
3  |  4:22.20 |  3:43.12 |   19670  |   36406
4  |  8:05.32 |  4:50.26 |   36407  |   58182
5  | 12:55.58 |  4:29.71 |   58183  |   78428
6  | 17:25.54 |  3:36.32 |   78429  |   94660
7  | 21:02.11 |  3:30.72 |   94661  |  110482
8  | 24:33.08 |  0:21.36 |  110483  |  112093
9  | 24:54.44 |  4:00.38 |  112094  |  130131
10  | 28:55.07 |  3:32.37 |  130132  |  146068
11  | 32:27.44 |  3:27.70 |  146069  |  161663
12  | 35:55.39 |  0:12.07 |  161664  |  162570
13  | 36:07.46 |  3:13.13 |  162571  |  177058
14  | 39:20.59 |  3:38.71 |  177059  |  193479
15  | 42:59.55 |  3:34.22 |  193480  |  209551
16  | 46:34.02 |  3:28.34 |  209552  |  225185
17  | 50:02.36 |  3:40.55 |  225186  |  241740

音轨  4

文件名 F:林嘉欣 - 午夜1130的星光美好的原點.wav

峰值电平 96.6 %
音轨质量 100.0 %
复制 CRC 734FA944
复制成功

音轨  5

文件名 F:林嘉欣 - 午夜1130的星光我不怕.wav

峰值电平 96.6 %
音轨质量 100.0 %
复制 CRC 7BDFB472
复制成功

音轨  6

文件名 F:林嘉欣 - 午夜1130的星光女明星.wav

峰值电平 96.6 %
音轨质量 100.0 %
复制 CRC E3ED6E03
复制成功

音轨  7

文件名 F:林嘉欣 - 午夜1130的星光最後我們....wav

峰值电平 96.6 %
音轨质量 100.0 %
复制 CRC 3932D7EE
复制成功

音轨  8

文件名 F:林嘉欣 - 午夜1130的星光Confession.wav

峰值电平 59.3 %
音轨质量 100.0 %
复制 CRC 55A9FA62
复制成功

音轨  9

文件名 F:林嘉欣 - 午夜1130的星光想念動作.wav

峰值电平 96.6 %
音轨质量 100.0 %
复制 CRC 082A8252
复制成功

音轨 10

文件名 F:林嘉欣 - 午夜1130的星光Soul Mate.wav

峰值电平 96.6 %
音轨质量 100.0 %
复制 CRC 875DB955
复制成功

音轨 11

文件名 F:林嘉欣 - 午夜1130的星光六樓後座之幸福.wav

峰值电平 96.6 %
音轨质量 100.0 %
复制 CRC FBA841D7
复制成功

音轨 12

文件名 F:林嘉欣 - 午夜1130的星光My Wishes.wav

峰值电平 96.6 %
音轨质量 100.0 %
复制 CRC BDD595CB
复制成功

音轨 13

文件名 F:林嘉欣 - 午夜1130的星光消失行蹤.wav

峰值电平 96.6 %
音轨质量 100.0 %
复制 CRC AA80ADDC
复制成功

音轨 14

文件名 F:林嘉欣 - 午夜1130的星光戀之風景.wav

峰值电平 96.6 %
音轨质量 100.0 %
复制 CRC 522C7175
复制成功

音轨 15

文件名 F:林嘉欣 - 午夜1130的星光Ocean.wav

峰值电平 96.6 %
音轨质量 100.0 %
复制 CRC 92FE4BB2
复制成功

音轨 16

文件名 F:林嘉欣 - 午夜1130的星光六樓後座 (粵語版).wav

峰值电平 96.6 %
音轨质量 100.0 %
复制 CRC 3F7F9115
复制成功

音轨 17

文件名 F:林嘉欣 - 午夜1130的星光戀之風景 (粵語版).wav

峰值电平 96.6 %
音轨质量 100.0 %
复制 CRC 7B917ECB
复制成功

没有错误发生

状态报告结尾

链接: http://pan.baidu.com/s/1c0hiUly 密码: be9u