专辑名称:【豪华包2.7G】G.E.M.邓紫棋63首WAV无损自选合辑 你把我灌醉演唱会版MV Where Did U Go(Get Everybody Moving Concert 2011 Live版)
专辑艺人:G.E.M.邓紫棋
发行公司:无
出版公司:无
ISBN:无
发行时间:2014年02月14日
资源类型:G.E.M.邓紫棋63首WAV 你把我灌醉演唱会版MV Where Did U Go(Get Everybody Moving Concert 2011 Live版)320KbpsMP3

G.E.M#邓紫棋#63首WAV/分轨无损自选合辑 【豪华包2.7G】-萌草酱

G.E.M#邓紫棋#63首WAV/分轨无损自选合辑 【豪华包2.7G】-萌草酱

【唱片介绍】:
原资源都是由在各个无损音乐论坛以及百度无损音乐吧里的热心发烧友们上传的,带有正版CD照片,光盘内圈码(贴内下附),唱片证书出版编号(贴内下附),EAC抓轨日志文件(贴内下附),光盘光谱图(贴内下附),在这里衷心感谢这些无私的上传者们。
原资源为正版光盘EAC抓规的邓紫棋各个专辑的WAV、FLAC、APE整轨和一部分的分轨,本人用Foobar2000将整轨进行分轨,并将FLAC、APE格式的整轨和分轨转为WAV。
63首包含G.E.M.邓紫棋出道以来的所有录音室专辑歌曲,以及一些现场专辑中的精品和Live Piano Session版歌曲。
附赠:你把我灌醉演唱会版MV Where Did U Go(Get Everybody Moving Concert 2011 Live版)320KbpsMP3

【专辑曲目】(按照首字母排序):
1.G.E.M. 邓紫棋 - 18
2.G.E.M. 邓紫棋 - A.I.N.Y. 爱你
3.G.E.M. 邓紫棋 - A.I.N.Y.(Live Piano Version)
4.G.E.M. 邓紫棋 - After Tonight (Live)(G.E.M.X.X.X.LIVE)
5.G.E.M. 邓紫棋 - After Tonight
6.G.E.M. 邓紫棋 - All About U(Live)(G.E.M.X.X.X.LIVE)
7.G.E.M. 邓紫棋 - All About U
8.G.E.M. 邓紫棋 - G.E.M. (Get Everybody Moving)
9.G.E.M. 邓紫棋 - G.E.M. _ Rolling in the Deep(组曲)(G.E.M.X.X.X.LIVE)
10.G.E.M. 邓紫棋 - Game Over
11.G.E.M. 邓紫棋 - Get Over You(Live)(G.E.M.X.X.X.LIVE)
12.G.E.M. 邓紫棋 - Get Over You
13.G.E.M. 邓紫棋 - Good to be Bad
14.G.E.M. 邓紫棋 - Hallelujah
15.G.E.M. 邓紫棋 - Mascara (Glossy Version)
16.G.E.M. 邓紫棋 - MASCARA 烟熏妆
17.G.E.M. 邓紫棋 - Oh Boy (Live)(G.E.M.X.X.X.LIVE)
18.G.E.M. 邓紫棋 - Oh Boy
19.G.E.M. 邓紫棋 - One Button
20.G.E.M. 邓紫棋 - Say it Loud
21.G.E.M. 邓紫棋 - Someday I'll Fly (Live)(G.E.M.X.X.X.LIVE)
22.G.E.M. 邓紫棋 - Someday I'll Fly
23.G.E.M. 邓紫棋 - The Voice Within
24.G.E.M. 邓紫棋 - Twinkle II
25.G.E.M. 邓紫棋 - What Have U Done
26.G.E.M. 邓紫棋 - What Have You Done_想讲你知(组曲)(G.E.M.X.X.X.LIVE)
27.G.E.M. 邓紫棋 - Where Did U Go (Live)(G.E.M.X.X.X.LIVE)
28.G.E.M. 邓紫棋 - Where Did U Go(Get Everybody Moving Concert 2011 Live版)320KbpsMP3
29.G.E.M. 邓紫棋 - Where Did U Go
30.G.E.M. 邓紫棋 - Where did you go 2.0 (Sam Vahdat Remix)
31.G.E.M. 邓紫棋 - 爱现在的我
32.G.E.M. 邓紫棋 - 不存在的存在(Live)(G.E.M.X.X.X.LIVE)
33.G.E.M. 邓紫棋 - 等一个他
34.G.E.M. 邓紫棋 - 等一个他 (Live)(G.E.M.X.X.X.LIVE)
35.G.E.M. 邓紫棋 - 回忆的沙漏
36.G.E.M. 邓紫棋 - 寂寞星球的玫瑰
37.G.E.M. 邓紫棋 - 美好的旧时光
38.G.E.M. 邓紫棋 - 末日
39.G.E.M. 邓紫棋 - 你把我灌醉(Live)(G.E.M.X.X.X.LIVE)
40.G.E.M. 邓紫棋 - 你把我灌醉
41.G.E.M. 邓紫棋 - 偶尔 (Live Piano Session)
42.G.E.M. 邓紫棋 - 泡沫 (Live)(G.E.M.X.X.X.LIVE)
43.G.E.M. 邓紫棋 - 泡沫
44.G.E.M. 邓紫棋 - 奇迹(Acoustic Mix)
45.G.E.M. 邓紫棋 - 奇迹
46.G.E.M. 邓紫棋 - 潜意识的残酷(Live)(G.E.M.X.X.X.LIVE)
47.G.E.M. 邓紫棋 - 潜意识的残酷
48.G.E.M. 邓紫棋 - 情人(live)
49.G.E.M. 邓紫棋 - 塞纳河
50.G.E.M. 邓紫棋 - 失真 (Live)(G.E.M.X.X.X.LIVE)
51.G.E.M. 邓紫棋 - 失真
52.G.E.M. 邓紫棋 - 食烟饮酒讲粗口 (林海峰 & G.E.M.)
53.G.E.M. 邓紫棋 - 是否 (Live Piano Session)
54.G.E.M. 邓紫棋 - 睡公主
55.G.E.M. 邓紫棋 - 我不懂爱
56.G.E.M. 邓紫棋 - 我的秘密(live)
57.G.E.M. 邓紫棋 - 我的秘密(G.E.M.X.X.X.LIVE)
58.G.E.M. 邓紫棋 - 我要我们在一起 (Live)(G.E.M.X.X.X.LIVE)
59.G.E.M. 邓紫棋 - 下一秒(我们就要死掉)(Live)(G.E.M.X.X.X.LIVE)
60.G.E.M. 邓紫棋 - 下一秒(我们就要死掉)
61.G.E.M. 邓紫棋 - 想讲你知
62.G.E.M. 邓紫棋 - 写不完的温柔
63.G.E.M. 邓紫棋 - 意式恋爱

Bouns:
你把我灌醉演唱会版MV Where Did U Go(Get Everybody Moving Concert 2011 Live版)320KbpsMP3

附:光盘内圈码,唱片证书出版编号,EAC抓轨日志文件,声谱图,光盘光谱图。

光盘内圈码:IFPI Hummingbird Music-02 HBMI11-12001

唱片证书出版编号:4/897013/071532Exact Audio Copy V1.0 beta 2 from 29. April 2011
Exact Audio Copy V1.0 beta 2 from 29. April 2011
EAC日志文件创建时间:7. 一月 2014, 12:14
未知艺术家 / 未知标题
光驱型号   PIONEER DVD-RW DVR-220L Adapter: 2 ID: 0
抓轨模式   : 精确模式
使用精确流  : 是
屏蔽数据缓存 : 是
使用C2纠错 : 否
读取偏移校正             : 0
通读Lead-In和Lead-Out : 否
用静音填充丢失的偏移采样       : 是
删除开始与结尾的静音部分       : 否
校验和计算中使用空白采样       : 是
使用的接口              : Win NT & 2000 的本地Win32接口
间隙处理               : 未检测到,追加到前一音轨尾部。
输出格式    : 内部WAV例程
采样格式    : 44.100 Hz; 16 Bit; 立体声

CD内容目录(TOC)
Track | Start | Length | Start sector | End sector
---------------------------------------------------------
1 | 0:00.00 | 3:36.64 | 0 | 16263
2 | 3:36.64 | 3:12.03 | 16264 | 30666
3 | 6:48.67 | 3:51.65 | 30667 | 48056
4 | 10:40.57 | 4:18.65 | 48057 | 67471
5 | 14:59.47 | 3:58.56 | 67472 | 85377
6 | 18:58.28 | 3:04.34 | 85378 | 99211
7 | 22:02.62 | 4:36.74 | 99212 | 119985
8 | 26:39.61 | 3:57.01 | 119986 | 137761
9 | 30:36.62 | 3:51.38 | 137762 | 155124
10 | 34:28.25 | 5:04.51 | 155125 | 177975

音轨序号 1
抓轨文件 :F:曝光1 WHAT HAVE U DONE.wav
峰值电平 :97.7 %
抓轨速度 :4.6 X
音轨质量 :100.0 %
复制CRC:98C2172E
复制成功 !
音轨序号 2
抓轨文件 :F:曝光2 下一秒.wav
峰值电平 :97.7 %
抓轨速度 :4.9 X
音轨质量 :100.0 %
复制CRC:A804C119
复制成功 !
音轨序号 3
抓轨文件 :F:曝光3 有一天我会飞.wav
峰值电平 :97.7 %
抓轨速度 :5.5 X
音轨质量 :100.0 %
复制CRC:1F792870
复制成功 !
音轨序号 4
抓轨文件 :F:曝光4 泡沫.wav
峰值电平 :97.7 %
抓轨速度 :5.9 X
音轨质量 :100.0 %
复制CRC:736AE17D
复制成功 !
音轨序号 5
抓轨文件 :F:曝光5 潜意识的残酷.wav
峰值电平 :98.8 %
抓轨速度 :5.2 X
音轨质量 :99.9 %
复制CRC:39744886
复制成功 !
音轨序号 6
抓轨文件 :F:曝光6 OH BOY.wav
峰值电平 :97.7 %
抓轨速度 :6.3 X
音轨质量 :100.0 %
复制CRC:43A0249F
复制成功 !
音轨序号 7
抓轨文件 :F:曝光7 今晚以后.wav
峰值电平 :97.7 %
抓轨速度 :7.1 X
音轨质量 :100.0 %
复制CRC:5DD52FF3
复制成功 !
音轨序号 8
抓轨文件 :F:曝光8 失真.wav
峰值电平 :97.7 %
抓轨速度 :7.3 X
音轨质量 :100.0 %
复制CRC:B34EDD6A
复制成功 !
音轨序号 9
抓轨文件 :F:曝光9 奇迹.wav
峰值电平 :97.7 %
抓轨速度 :7.6 X
音轨质量 :100.0 %
复制CRC:8BF63BF9
复制成功 !
音轨序号 10
抓轨文件 :F:曝光10 不存在的存在.wav
峰值电平 :97.7 %
抓轨速度 :8.2 X
音轨质量 :100.0 %
复制CRC:A7D94A1C
复制成功 !
没有错误发生
日志文件结束